digitalFAQ.com Forum

digitalFAQ.com Forum (http://www.digitalfaq.com/forum/)
-   Encode, Convert for discs (http://www.digitalfaq.com/forum/video-conversion/)
-   -   Tmpenc mastering works not reading videos (http://www.digitalfaq.com/forum/video-conversion/8646-tmpenc-mastering-works.html)

wigam 04-17-2018 07:27 PM

Tmpenc mastering works not reading videos
 
I added an avi and it says "no video data present", just audio.

I have added avi previously without a problem for re encoding.

The only difference is that I had split the avi using a program cos it was too big to transfer between computers. No re-encoding.

The split files are playable in vlc. Virtualdub happily plays it as well.

:unsure:

dpalomaki 04-18-2018 08:48 AM

Do I understand correctly that you split one large file into two smaller files?
Does it fail on both files, or just one?
How did you split the files?

wigam 04-18-2018 02:33 PM

Hi, yes. I split one larger file into two smaller ones. It fails on both files.

I split it using idoo video editor software.

Like I say I can play in other programs. Works in videoredo as well.

dpalomaki 04-19-2018 08:47 AM

Do I understand that other programs on the same computer as TMPGEnc can play the files normally?
Which release of TMPGEnc?

Does MediaInfo show the same information (except duration) for the video portion of the split and not-split files?

wigam 04-20-2018 01:55 PM

That is correct.

Mastering works 5. Although I tried a demo of the latest TMGENC author and that doesn't like it either.

Looks same info.

Wondering if its a setting or a codec priority issue

sanlyn 04-20-2018 02:06 PM

Just saying that your video is "AVI" doesn't say much. AVI is a container, not a format. It can contain many different kinds of encodes. What dpalomaki requested was a readout from the free MediaInfoXP utility. It's a small stand-alone program that needs no installer and works in all versions of Windows. Download it to your PC from this link: https://www.videohelp.com/download/M...2018-04-13.zip. Unzip it and place the .exe on your desktop. Use it to open a video file, then select the "text" view. It will show a window of text-formatted info about your videos. You can copy the text directly to your clipboard and paste it into a forum post like plain text, or you can save the data as a text file and upload it here.

Otherwise there's really nothing anyone can do.

wigam 04-20-2018 02:57 PM

gotcha.

General
Complete name : D:\avengers\boomerang\boomerang_01.avi
Format : AVI
Format/Info : Audio Video Interleave
Format profile : OpenDML
File size : 22.4 GiB
Duration : 41 min 27 s
Overall bit rate : 77.3 Mb/s
Writing library : Lavf53.24.2

Video
ID : 0
Format : Lagarith
Codec ID : LAGS
Duration : 41 min 27 s
Bit rate : 75.8 Mb/s
Width : 1 920 pixels
Height : 1 080 pixels
Display aspect ratio : 16:9
Frame rate : 48.225 FPS
Color space : YUV
Chroma subsampling : 4:2:2
Bit depth : 8 bits
Bits/(Pixel*Frame) : 0.758
Stream size : 21.9 GiB (98%)

Audio
ID : 1
Format : PCM
Format settings : Little / Signed
Codec ID : 1
Duration : 41 min 27 s
Bit rate mode : Constant
Bit rate : 1 536 kb/s
Channel(s) : 2 channels
Sampling rate : 48.0 kHz
Bit depth : 16 bits
Stream size : 455 MiB (2%)
Alignment : Aligned on interleaves
Interleave, duration : 21 ms (1.00 video frame)

dpalomaki 04-20-2018 04:18 PM

Except for duration/file size, is the information for the original and split files the same?

Is the data for the original or split file?
Does TMPGEnc open the original file OK?

wigam 05-11-2018 10:04 AM

thanks for assistance, ended up re-capping instead.


All times are GMT -5. The time now is 08:31 AM

Site design, images and content © 2002-2022 The Digital FAQ, www.digitalFAQ.com
Forum Software by vBulletin · Copyright © 2022 Jelsoft Enterprises Ltd.