Quantcast Tmpenc mastering works not reading videos - digitalFAQ Forum
  #1  
04-17-2018, 07:27 PM
wigam wigam is offline
Free Member
 
Join Date: Jun 2005
Location: Dunkin' Donuts
Posts: 100
Thanked 2 Times in 2 Posts
I added an avi and it says "no video data present", just audio.

I have added avi previously without a problem for re encoding.

The only difference is that I had split the avi using a program cos it was too big to transfer between computers. No re-encoding.

The split files are playable in vlc. Virtualdub happily plays it as well.

Reply With Quote
Someday, 12:01 PM
admin's Avatar
Ads / Sponsors
 
Join Date: ∞
Posts: 42
Thanks: ∞
Thanked 42 Times in 42 Posts
  #2  
04-18-2018, 08:48 AM
dpalomaki dpalomaki is offline
Free Member
 
Join Date: Feb 2014
Location: VA
Posts: 1,411
Thanked 320 Times in 278 Posts
Do I understand correctly that you split one large file into two smaller files?
Does it fail on both files, or just one?
How did you split the files?
Reply With Quote
  #3  
04-18-2018, 02:33 PM
wigam wigam is offline
Free Member
 
Join Date: Jun 2005
Location: Dunkin' Donuts
Posts: 100
Thanked 2 Times in 2 Posts
Hi, yes. I split one larger file into two smaller ones. It fails on both files.

I split it using idoo video editor software.

Like I say I can play in other programs. Works in videoredo as well.
Reply With Quote
  #4  
04-19-2018, 08:47 AM
dpalomaki dpalomaki is offline
Free Member
 
Join Date: Feb 2014
Location: VA
Posts: 1,411
Thanked 320 Times in 278 Posts
Do I understand that other programs on the same computer as TMPGEnc can play the files normally?
Which release of TMPGEnc?

Does MediaInfo show the same information (except duration) for the video portion of the split and not-split files?
Reply With Quote
  #5  
04-20-2018, 01:55 PM
wigam wigam is offline
Free Member
 
Join Date: Jun 2005
Location: Dunkin' Donuts
Posts: 100
Thanked 2 Times in 2 Posts
That is correct.

Mastering works 5. Although I tried a demo of the latest TMGENC author and that doesn't like it either.

Looks same info.

Wondering if its a setting or a codec priority issue
Reply With Quote
  #6  
04-20-2018, 02:06 PM
sanlyn sanlyn is offline
Premium Member
 
Join Date: Aug 2009
Location: N. Carolina and NY, USA
Posts: 3,648
Thanked 1,265 Times in 972 Posts
Just saying that your video is "AVI" doesn't say much. AVI is a container, not a format. It can contain many different kinds of encodes. What dpalomaki requested was a readout from the free MediaInfoXP utility. It's a small stand-alone program that needs no installer and works in all versions of Windows. Download it to your PC from this link: https://www.videohelp.com/download/M...2018-04-13.zip. Unzip it and place the .exe on your desktop. Use it to open a video file, then select the "text" view. It will show a window of text-formatted info about your videos. You can copy the text directly to your clipboard and paste it into a forum post like plain text, or you can save the data as a text file and upload it here.

Otherwise there's really nothing anyone can do.
Reply With Quote
  #7  
04-20-2018, 02:57 PM
wigam wigam is offline
Free Member
 
Join Date: Jun 2005
Location: Dunkin' Donuts
Posts: 100
Thanked 2 Times in 2 Posts
gotcha.

General
Complete name : D:\avengers\boomerang\boomerang_01.avi
Format : AVI
Format/Info : Audio Video Interleave
Format profile : OpenDML
File size : 22.4 GiB
Duration : 41 min 27 s
Overall bit rate : 77.3 Mb/s
Writing library : Lavf53.24.2

Video
ID : 0
Format : Lagarith
Codec ID : LAGS
Duration : 41 min 27 s
Bit rate : 75.8 Mb/s
Width : 1 920 pixels
Height : 1 080 pixels
Display aspect ratio : 16:9
Frame rate : 48.225 FPS
Color space : YUV
Chroma subsampling : 4:2:2
Bit depth : 8 bits
Bits/(Pixel*Frame) : 0.758
Stream size : 21.9 GiB (98%)

Audio
ID : 1
Format : PCM
Format settings : Little / Signed
Codec ID : 1
Duration : 41 min 27 s
Bit rate mode : Constant
Bit rate : 1 536 kb/s
Channel(s) : 2 channels
Sampling rate : 48.0 kHz
Bit depth : 16 bits
Stream size : 455 MiB (2%)
Alignment : Aligned on interleaves
Interleave, duration : 21 ms (1.00 video frame)
Reply With Quote
  #8  
04-20-2018, 04:18 PM
dpalomaki dpalomaki is offline
Free Member
 
Join Date: Feb 2014
Location: VA
Posts: 1,411
Thanked 320 Times in 278 Posts
Except for duration/file size, is the information for the original and split files the same?

Is the data for the original or split file?
Does TMPGEnc open the original file OK?
Reply With Quote
  #9  
05-11-2018, 10:04 AM
wigam wigam is offline
Free Member
 
Join Date: Jun 2005
Location: Dunkin' Donuts
Posts: 100
Thanked 2 Times in 2 Posts
thanks for assistance, ended up re-capping instead.
Reply With Quote
Reply




Similar Threads
Thread Thread Starter Forum Replies Last Post
TMPG Mastering Works 5 and PAL - NTSC conversions premiumcapture Encode, Convert for discs 0 10-01-2014 08:09 AM
Initial Impressions of TMPGenc Video Mastering Works 5 Tuco Encode, Convert for discs 1 05-03-2011 05:57 AM

Thread Tools



 
All times are GMT -5. The time now is 09:08 PM