#1  
04-03-2021, 02:37 PM
burt8810 burt8810 is offline
Free Member
 
Join Date: Nov 2020
Location: NE OHIO
Posts: 6
Thanked 1 Time in 1 Post
Hello,
Avidemux 2.7.6 Release
Trying to encode a video file (media info data at end)
Got this error message:
VIDEO:
Cannot set up encoder for the first pass. The configuration supplied to the encoder may be incompatible or the encoder may depend on features unavailable to this system.

Tried Settings as given in: How to Encode MPEG-2 with Avidemux (Freeware) – Part 1 & 2

Selected “Mpeg2 (ff)” codec
Config: Tried both 4:3 and 16:9
Encoding Mode: Tried; Constant Quant; Two Pass
Interlacing: Tried both Progressive and Interlaced

*** Any info greatly appreciated, Thanks ***

I am using Hauppauge HD PVR Rocket to acquire data from a cable box. I have no control of encoding while acquiring data it is H264 and I can choose mp4, mts or m2ts as the container. I can control data rate, used 8Mb.

MEDIA INFO DATA:
General
Complete name : G:\PVRvideo\TinaTurnerOneLastTime_Cut.mp4
Format : MPEG-4
Format profile : Base Media
Codec ID : isom (isom/iso2/avc1/mp41)
File size : 3.41 GiB
Duration : 59 min 53 s
Overall bit rate : 8 141 kb/s
Writing application : Lavf58.29.100

Video
ID : 1
Format : AVC
Format/Info : Advanced Video Codec
Format profile : Baseline@L4
Format settings : 1 Ref Frames
Format settings, CABAC : No
Format settings, Reference frames : 1 frame
Format settings, GOP : M=1, N=60
Codec ID : avc1
Codec ID/Info : Advanced Video Coding
Duration : 59 min 53 s
Bit rate : 8 005 kb/s
Width : 1 920 pixels
Height : 1 080 pixels
Display aspect ratio : 16:9
Frame rate : 29.970 (30000/1001) FPS
Color space : YUV
Chroma subsampling : 4:2:0
Bit depth : 8 bits
Scan type : Progressive
Bits/(Pixel*Frame) : 0.129
Stream size : 3.35 GiB (98%)
Codec configuration box : avcC

Audio
ID : 2
Format : AAC LC
Format/Info : Advanced Audio Codec Low Complexity
Codec ID : mp4a-40-2
Duration : 59 min 53 s
Bit rate mode : Constant
Bit rate : 128 kb/s
Channel(s) : 2 channels
Channel layout : L R
Sampling rate : 48.0 kHz
Frame rate : 46.875 FPS (1024 SPF)
Compression mode : Lossy
Stream size : 54.8 MiB (2%)
Default : Yes
Alternate group : 1

*** SYSTEM INFO ***
Edition Windows 10 Pro
Version 20H2
OS build 19042.870
Experience Windows Feature Experience Pack 120.2212.551.0
Processor AMD Phenom(tm) II X4 840 Processor 3.20 GHz
Installed RAM 16.0 GB
System type 64-bit operating system, x64-based processor

Last edited by burt8810; 04-03-2021 at 02:44 PM. Reason: Add system info
Reply With Quote
Someday, 12:01 PM
admin's Avatar
Ads / Sponsors
 
Join Date: ∞
Posts: 42
Thanks: ∞
Thanked 42 Times in 42 Posts
Reply




Tags
avidemux, h264, mpeg-2

Similar Threads
Thread Thread Starter Forum Replies Last Post
MPEG2 encoder, not Avidemux? BarryTheCrab Encode, Convert for discs 4 03-15-2021 08:03 PM
Network Transcoding Solution 360encode Encode, Convert for discs 0 12-17-2018 04:09 AM
DVD to H264 needs deinterlace? naripeddi Restore, Filter, Improve Quality 6 07-20-2018 04:04 AM
What encoder does DVD Shrink use? What is transcoding? lordsmurf Copy DVDs, Duplicate, Replicate 7 04-14-2010 12:19 PM

Thread Tools



 
All times are GMT -5. The time now is 12:02 AM